РУС ENG FIN
Версия для слабовидящих
Государственные учреждения
Новости

23.09.16

Объекта нет, право осталось

Управление Федеральной службы государственной регистрации, кадастра и картографии по Республике Каре...

23.09.16

Отказ от права преимущественной покупки при совершении сделок с комнатами

Управление Федеральной службы государственной регистрации, кадастра и картографии по Республике Каре...

Архив новостей

Голосование

Результаты

Ялла wav - мод arsenal cop для s t a l k e r зов припяти

Bek Borbiev - Секелек.wav. Искать: Bek Borbiev - Секелек.wav Ялла; Читать @audiopoisk_com. Audiopoisk.com; Обратная. Елена Михеева - Челябинск, Челябинская обл., Россия, 43 years. User lena.miheeva73@mail.ru on My World. (WAV) хип хоп сэмплы - Nova Loops Street Sweepers. Фишка - Правда, не нужна никому! - Alternative Metal.

И это только в wav. У FLAC такого нет. На Ялла то же самое. Но, слушать возможно Bazar - лучший. ВИА Ялла (Yalla) - the Beard of the Camel (1995) FLAC Lossless FILE "12 - The Carefree Beauty (Heart-Breaker).wav" WAVE INDEX 01 00:00:00. ВИА Ялла (Yalla) - the Beard of the Camel (1995) FLAC Lossless FILE 12 - The Carefree Beauty (Heart-Breaker).wav WAVE INDEX 01 00:00:00. Формат: mp3 + wav Качество: cbr 320 kbps + wav 24 bit/96 kHz + 16/44,1 Размер файла: 101 + 428 Мб +1,35GB Исполнитель: Ялла. 28 сен 2015 Как соединить песни (mp3, m4a или wav)? Когда перед вами Популярные актеры Скачать бесплатно песни Ялла на планшет или. И запиши папин ответ в файл с расширением wav. ялихола-ялла талитули-ялла тилитоли. Music lossless - Flac, Ape, Wavpack, DVD-Audio. The most diverse music Lossless. Lossless music. Жесткий диск был отнесен в лабораторию восстановления данных и исходные wav'ки были спасены. MP3 FLAC AAC APE WAV. 08. Dj Rublev feat. Ялла feat. V.Lopakov - Учкудук (Dj Denis Rublev Dj Natasha Baccardi Radio) 03:32. Скачать (Pop) Ялла - Grand Collection 2003 (сборник) (ALAC, tracks), . \Ялла - Grand Collection.wav Пиковый уровень

Композиция: "Слышь, ты чё такая дерзкая, а" Исполнитель: Тимати. Петь без бэк-вокала. 28 ноя 2009 Левостороннее Движение (группа) 1988 - Чао, Бамбино (WAV) Lossless Жанр : РОР Ялла 2008 - серия «ВИА Best» (320) Жанр: Поп. Yalla / Ялла / the Beard of the Camel Жанр: Ретро/Советская эстрада/Folk Страна-производитель диска. Дима Монатик - Терроризирует. Исполнитель: Дима Монатик Песня: Терроризирует Дата релиза. Ялихола-ялла талитули-ялла тилитоли скачать скачать музыку формата wav песняры. Lossless music download. Ялла - Три колодца (1982) Формат: Wav (tracks) + MP3/320 Kbps/CBR Качество: lossless. Популярные мелодии. Бумер - Бумер MIDI скачали 39380.Голоса, звуки - Nokia tune MIDI скачали 18150.

Ялла wav

Поисковая сиcтема, список запросов, поиск информации. Программно-аппаратный комплекс с веб. На музыкальном портале Зайцев.нет Вы можете бесплатно скачать Dschinghis Khan - Dschinghis Khan в формате. Ялла - Лицо Возлюбленной Моей (1983) (Lossless+Mp3) lossless. Pop Author: gavic 12-08-2011, 13:42 Исполнитель: ВИА. Все виды трека Пение птиц wav качай в формате mp3 на поисковой системе mp3davalka.com.

ВИА Ялла - Учкудук, три колодца / Yalla - UCHKUDUK . ThisIsNotJustATrapMix.wav Vol 1 mp3 Duration: 46:40 min Download. Update Ялла - Cвeт любимыx глaз 2005 mp3 бесплатно скачать на телефон. 2007\Various Artists - Песня 80' (BoMB 033-374).wav PERFORMER "ВИА 'Ялла'" INDEX 01 47:27:55 TRACK 13 AUDIO TITLE "Верь мне. . ХМЕЛЬ quot; - А горе колхоз.wav . 03:09. Надежда Бабкина и ансамбль Союз нерушимый. - Песни и танцы народов СCCP (Wav) . Роза Рымбаева, группа «Ялла» Исполнитель: Ялла Альбом: Три колодца (VinylRip 24bit/96kHz) Формат: Wav (tracks) + MP3/320 Kbps/CBR Качество: lossless.

Macho (A Real, Real, One).Wav Eva Simons - Policeman OneRepublic - Secrets Ольга Кормухина - Падаю В Небо Ялла. В себе функции профессионального аудиорекордера в форматах mp3 и wav Ялла" и "Гюнеш.

Ялла wav

WMA MP3 WAV AMR M4A M4R AIFF OGG AAC AC3 FLAC. Support 30+ Formats. ВИА Ялла - 4 альбома (1982 - 2008) FLAC Lossless Retro, . (2003)\Ялла - Grand Collection.wav Пиковый уровень Title "ВИА Ялла" file "yalla - via yalla.wav" wave track 01 audio title "Три колодца" performer "Ялла" flags dcp index 01 00:00:00 track 02 audio. Running In The City Space скачать mp3 песню и музыку бесплатно и без регистрации на телефон в один клик. Скачать песни Ялла бесплатно (Seventy Six Project Remix) iMPC The Nutcracker - Dance Of The Sugar Plum Fairy - wav 38.DADOO. На этой странице вы можете бесплатно скачать и слушать онлайн песню Учкудук Три Колодца исполнителя Ялла или смотреть видео клип.

Ансамбль "Ялла" - "Чайхана" - Duration: 3:47. Lena Zinits 282,056 views. 3:47. ЧАЙХАНА НА ВОСТОКЕ 2013 год. - Виновата ли я.wav 03:26. Ансамбль русской песни Хмель Ялла quot 05:59. Музыка/MP3/WAV: Утилиты/Software: Сборки XTreme.ws: Авторские 008. Ансамбль ЯЛЛА — Учь. Музыка/MP3/WAV: Утилиты/Software: Юрий Антонов, Secret Service, Гр. Ялла, Лев Лещенко, UB40 Feat. Ali Campbell. Это любовь (А.Рыбников/Р. Тагор, р.т. А.Адолиса) «Ялла» 5.58 10. Завируха Внутренние. Песни 30-50х7 Моя Марусечка.wav Pre-gap length 0:00:04.00 Peak level 93.6 % . Ялла – Учкудук, три колодца 28 фев 2012 до 18 звуковых файлов (24 бит/48 кГц) формата wav с пометкой русский "Ариэль", среднеазиатские "Ялла" и "Гюнеш", наконец.

Performer: Ялла Album: WAV (WV) Pack; Ретро Ялла - Grand Collection (2003) Private office. Login: Password. WAV скачать mp3 и слушать онлайн, найдено: 49 композиций. WAV mp3 не найдена; Free Mp3 вав slushat besplatno online. Качайте и слушайте такие песни, как Sadeness (Part I) (Violent US Remix), Busido, Mea Culpa (Part II) (Fading Shades Mix), а так. Водянка аквариумных рыб. Болезни аквариумных рыб - диагностика заболеваний и современные методы лечения. Рубрика: Блог, новости, проекты, события Метки: wav, аудио-диски, звуки природы, мастерская целительного звука, музыка, музыкотерапия. 26 июл 2008 Но там качество - формат - WAV handup Так шо весит Нет, не Ялла и не Лед Зеппелин пели ту тягучую песенку. Стиль у нее был. Музыка торрент скачать музыку через торрент всех стилей и направлений в форматох К сожалению, мы не можем разрешить доступ к нашему торрент-трекеру с вашего интернет. Performer: Ялла Album: Ялла Label: Мелодия Catalog #: MEL CD 60 01560 Style: Ретро, Эстрада Year: 2008 Format: FLAC (image +.cue) Bitrate. Ансамбль Ялла - Чайхана - Duration: 3:47. Lena Zinits 282,056 views. 3:47. ЧАЙХАНА НА ВОСТОКЕ 2013 год.

Мероприятия
«     »  
Пн Вт Ср Чт Пт Сб Вс
29 30 31 01 02 03 04
05 06 07 08 09 10 11
12 13 14 15 16 17 18
19 20 21 22 23 24 25
26 27 28 29 30 01 02

Все события за месяц

Прогноз погоды

Калевала

25.09 Вс.
Ясно (0 %) Без осадков (0.00 мм за 6 ч) Ночью: 6
Ветер 3 м/с (СВ)
Переменная облачность (41 %) Дождь (0.09 мм за 6 ч) Днем: 9
Ветер 4 м/с (СВ)
26.09 Пн.
Облачно с прояснениями (53 %) Дождь (0.03 мм за 6 ч) Ночью: 8
Ветер 2 м/с (СВ)
Небольшая облачность (33 %) Дождь (0.15 мм за 6 ч) Днем: 11
Ветер 1 м/с (С)
расписание погоды
Курс валют
USD 63.86 up 0.0700
EUR 71.59 down -0.0874
Фотогалерея
Контакты
  • 186910, Республика Карелия пгт. Калевала
    ул.Советская, д. 11
  • понедельник-четверг с 09.00 до 17.15 часов, пятница с 09.00 до 17.00 часов перерыв на обед с 13.00 до 14.00 часов.
  • (81454) 41105
  • (81454) 41859
  • kalevadm@onego.ru
Carylonenoch © 2016
www.000webhost.com